hellosweetieuk.co.uk - The Largest Bittorent System Login   |    Register
Latest Articles
Most searched
Hot torrents
Movie Torrents
View Torrent Info: Mission: Impossible - Fallout (2018) [720p] [YTS] [YIFY]
View Torrent Info: Crazy Rich Asians (2018) [720p] [YTS] [YIFY]
View Torrent Info: Outlaw King (2018) [720p] [YTS] [YIFY]
View Torrent Info: Kin (2018) [720p] [YTS] [YIFY]
View Torrent Info: River Runs Red (2018) [720p] [YTS] [YIFY]
View Torrent Info: Robin Hood The Rebellion (2018) [720p] [YTS] [YIFY]
View Torrent Info: The Miseducation of Cameron Post (2018) [720p] [YTS] [YIFY]
View Torrent Info: Time Freak (2018) [720p] [YTS] [YIFY]
View Torrent Info: In a Relationship (2018) [720p] [YTS] [YIFY]
View Torrent Info: Patrick (2018) [720p] [YTS] [YIFY]
Hot torrents
TV Torrents
View Torrent Info: Blindspot.S04E05.HDTV.x264-PHOENiX[eztv]
View Torrent Info: Titans.2018.S01E05.WEB.x264-PHOENiX
View Torrent Info: Greys.Anatomy.S15E07.HDTV.x264-KILLERS[eztv]
View Torrent Info: Arrow.S07E04.HDTV.x264-SVA
View Torrent Info: Young.Sheldon.S02E08.HDTV.x264-KILLERS[eztv]
View Torrent Info: Titans.2018.S01E05.WEB.XviD-AVID
View Torrent Info: The.Big.Bang.Theory.S12E08.XviD-AFG[eztv]
View Torrent Info: The.Last.Ship.S05E09.XviD-AFG
View Torrent Info: The.Big.Bang.Theory.S12E08.HDTV.x264-SVA[eztv]
View Torrent Info: S.W.A.T.2017.S02E07.XviD-AFG[eztv]
hellosweetieuk.co.uk > Categories > TV torrents > Defiance torrents


Browse TV torrents

Defiance S03E04 HDTV x264-2HD torrent



Download torrent: Magnet link Bookmark Torrent: Defiance S03E04 HDTV x264-2HD Download Defiance S03E04 HDTV x264-2HD torrent (magnet link)
Info hash: 848A58696E94FF6B250821A66D82B616F7847106
Category: Categories > TV torrents > Defiance torrents
Trackers:
12    View all torrent trackers >
Health:
 seeds: 0 ,  leechers: 0 |  Update >
Torrent language:  
Total Size: 343.34 MB
Torrent status: Added by trusted uploader Added by trusted uploader Trusted Uploader Site Friend Superman Sun
Uploader: Trusted Uploader Site Friend Superman Sun
 

Download Defiance S03E04 HDTV x264-2HD via Magnet Link




Torrent Description

Defiance S03E04 HDTV x264-2HD

Nolan and Amanda are captured while excavating a buried weapons cache; Berlin investigates a Votanis Collective bombing in the heart of Defiance and sees an opportunity to get revenge on Irisa; Stahma's clandestine relationship with the mysterious Omec leader T'evgin takes a turn.




Format : MPEG-4
Format profile : Base Media
Codec ID : isom
File size : 343 MiB
Duration : 42mn 26s
Overall bit rate mode : Variable
Overall bit rate : 1 131 Kbps
Encoded date : UTC 2015-06-27 04:07:37
Tagged date : UTC 2015-06-27 04:07:37

Video
ID : 1
Format : AVC
Format/Info : Advanced Video Codec
Format profile : [email protected]
Format settings, CABAC : Yes
Format settings, ReFrames : 5 frames
Codec ID : avc1
Codec ID/Info : Advanced Video Coding
Duration : 42mn 26s
Source duration : 42mn 26s
Bit rate : 999 Kbps
Maximum bit rate : 3 924 Kbps
Width : 720 pixels
Height : 404 pixels
Display aspect ratio : 16:9
Frame rate mode : Constant
Frame rate : 23.976 fps
Color space : YUV
Chroma subsampling : 4:2:0
Bit depth : 8 bits
Scan type : Progressive
Bits/(Pixel*Frame) : 0.143
Stream size : 303 MiB (88%)
Source stream size : 303 MiB (88%)
Writing library : x264 core 146 r2538 121396c
Encoding settings : cabac=1 / ref=5 / deblock=1:0:0 / analyse=0x3:0x113 / me=umh / subme=8 / psy=1 / psy_rd=1.00:0.00 / mixed_ref=1 / me_range=16 / chroma_me=1 / trellis=1 / 8x8dct=1 / cqm=0 / deadzone=21,11 / fast_pskip=1 / chroma_qp_offset=-2 / threads=12 / lookahead_threads=2 / sliced_threads=0 / nr=0 / decimate=1 / interlaced=0 / bluray_compat=0 / constrained_intra=0 / bframes=3 / b_pyramid=2 / b_adapt=2 / b_bias=0 / direct=3 / weightb=1 / open_gop=0 / weightp=2 / keyint=250 / keyint_min=23 / scenecut=40 / intra_refresh=0 / rc_lookahead=50 / rc=crf / mbtree=1 / crf=19.0 / qcomp=0.60 / qpmin=0 / qpmax=69 / qpstep=4 / ip_ratio=1.40 / aq=1:1.00
Encoded date : UTC 2015-06-27 03:55:29
Tagged date : UTC 2015-06-27 04:07:38
Matrix coefficients : BT.709
Color range : Limited

Audio
ID : 2
Format : AAC
Format/Info : Advanced Audio Codec
Format profile : LC
Codec ID : 40
Duration : 42mn 26s
Bit rate mode : Variable
Bit rate : 128 Kbps
Maximum bit rate : 154 Kbps
Channel(s) : 2 channels
Channel positions : Front: L R
Sampling rate : 48.0 KHz
Compression mode : Lossy
Stream size : 38.9 MiB (11%)
Encoded date : UTC 2015-06-27 04:07:38
Tagged date : UTC 2015-06-27 04:07:38



#Mulva1989 -> To avoid fakes, ALWAYS check that the torrent was added on hellosweetieuk.co.uk by Mulva1989

http://hellosweetieuk.co.uk/




Comments (please add your comment)
No comments



Home - Browse Torrents - Upload Torrent - Stat - Forum - FAQ - Login
hellosweetieuk.co.uk is in compliance with copyrights
2006-2018 hellosweetieuk.co.uk
Sitemap4X Citroen Berlingo C4 C5 C8 Jumper Jumpy Xsara 2.0 Hdi Glow Plug | Journal of Rese arch in Ecology | Late Spring Golf 4 1.6 Automatik Comfortline mit TÜV | Nur ein kleiner Gefallen (2018) | Watch Series